Win10论坛

Win10正式版系统下载主题平板

重定义Modern UI,打造完美Windows全新体验

Windows10下载|安装|新手宝典|必备软件

搜索
楼主: Dytto

[资源] 挑战“时间的风景”-号称史上最大4K [复制链接]

Rank: 20Rank: 20Rank: 20Rank: 20

UID
456912
帖子
62367
PB币
66
贡献
0
技术
73
活跃
8776

热心会员 水神勋章

发表于 2018-11-13 09:18:17 |显示全部楼层
single013 发表于 2018-11-13 08:48
最大码流200MB/s以上。需要ssd配合显卡硬解码。如果显卡不支持4k那个格式硬解码那么cpu必须卡成狗。刚开始时 ...

200MB/S,很多 HDD 都没有这个速度的

Rank: 2Rank: 2

UID
4844740
帖子
360
PB币
774
贡献
0
技术
0
活跃
225
发表于 2018-11-13 09:29:41 |显示全部楼层
视频时长20S????

Rank: 7Rank: 7Rank: 7

UID
1182000
帖子
2893
PB币
18923
贡献
0
技术
0
活跃
1530

7周年庆典勋章 8周年庆典勋章

发表于 2018-11-13 09:38:12 |显示全部楼层
太大了视频文件!!

Rank: 5Rank: 5Rank: 5

UID
105363
帖子
532
PB币
1539
贡献
0
技术
1
活跃
1309
发表于 2018-11-13 09:59:05 |显示全部楼层
多谢楼主分享!!

Rank: 7Rank: 7Rank: 7

UID
1144965
帖子
366
PB币
66
贡献
0
技术
0
活跃
954
发表于 2018-11-13 10:08:39 来自手机 |显示全部楼层
卡主要是没放SSD里。目前主流CPU和显卡绝对够用了。

Rank: 5Rank: 5Rank: 5

UID
3994807
帖子
1156
PB币
1044
贡献
0
技术
26
活跃
1193
发表于 2018-11-13 10:11:44 来自手机 |显示全部楼层
single013 发表于 2018-11-13 08:46
需要安装专用解码器。你要的资料信息网上一大把。

这个视频按道理来说,目前的主流配置可以正常播放。它的bt种子里含有一个编码解码软件,安装之后,win自带的wmp都可以打开它,但只有编码解码软件自带的播放器可以流畅播放,其它的都卡成狗,这不科学。

网上吹牛逼的帖子不少,试摘录一段2014年的回帖,

2016-12-24 10:50:32
3千块的主机就可以完全播放、而且是集成显卡,4K并不稀奇。

然而无图无真相,2014年有potplayer了吧?说这个,我是不信的。

Rank: 5Rank: 5Rank: 5

UID
3994807
帖子
1156
PB币
1044
贡献
0
技术
26
活跃
1193
发表于 2018-11-13 10:23:43 来自手机 |显示全部楼层
dsanke 发表于 2018-11-13 10:08
卡主要是没放SSD里。目前主流CPU和显卡绝对够用了。

不要想当然,无图无真相。

Rank: 5Rank: 5Rank: 5

UID
2784796
帖子
1126
PB币
1047
贡献
0
技术
0
活跃
1732
发表于 2018-11-13 10:43:17 |显示全部楼层
谢谢分享,,,,,

Rank: 11Rank: 11Rank: 11

UID
4787013
帖子
7728
PB币
8494
贡献
0
技术
2
活跃
1089
发表于 2018-11-13 11:01:59 |显示全部楼层
多谢楼主分享!

Rank: 7Rank: 7Rank: 7

UID
1001591
帖子
1553
PB币
1594
贡献
0
技术
0
活跃
643
发表于 2018-11-13 11:10:53 |显示全部楼层
powerwsm 发表于 2018-11-13 08:35
楼主机器什么配置啊,手机端的4k我这能看呀,为啥电脑看不了

手机4k和电脑不能比

Rank: 5Rank: 5Rank: 5

UID
253205
帖子
774
PB币
3916
贡献
0
技术
0
活跃
883
发表于 2018-11-13 11:36:09 |显示全部楼层
vcb-s有压制的,22.6G

Rank: 5Rank: 5Rank: 5

UID
437110
帖子
422
PB币
0
贡献
0
技术
0
活跃
1427
发表于 2018-11-13 11:54:36 |显示全部楼层
小水管,300多G,算了吧

Rank: 5Rank: 5Rank: 5

UID
3994807
帖子
1156
PB币
1044
贡献
0
技术
26
活跃
1193
发表于 2018-11-13 11:58:05 |显示全部楼层
czb1994 发表于 2018-11-13 08:43
有人可以把文件编码格式截图看看吗,我发现我没有一个分区有300G

General
Complete name : TimeScapes 4k CineForm.avi
Format : AVI
Format/Info : Audio Video Interleave
Format profile : OpenDML
File size : 307 GiB
Duration : 48 min 22 s
Overall bit rate : 909 Mb/s

Video
ID : 0
Format : CineForm
Codec ID : CFHD
Codec ID/Info : CineForm 10-bit Visually Perfect HD (Wavelet)
Duration : 48 min 21 s
Bit rate : 908 Mb/s
Width : 4 096 pixels
Height : 2 304 pixels
Display aspect ratio : 16:9
Frame rate : 23.976 (24000/1001) FPS
Scan type : Progressive
Bits/(Pixel*Frame) : 4.013
Stream size : 307 GiB (100%)

Audio
ID : 1
Format : PCM
Format settings : Little / Signed
Codec ID : 1
Duration : 48 min 22 s
Bit rate mode : Constant
Bit rate : 1 536 kb/s
Channel(s) : 2 channels
Sampling rate : 48.0 kHz
Bit depth : 16 bits
Stream size : 531 MiB (0%)
Alignment : Aligned on interleaves
Interleave, duration : 250 ms (5.99 video frames)
Interleave, preload duratio : 250 ms

Rank: 5Rank: 5Rank: 5

UID
3676148
帖子
971
PB币
729
贡献
0
技术
29
活跃
1155
发表于 2018-11-13 12:35:50 |显示全部楼层
一年前我下了,放不了,就删了。

Rank: 2Rank: 2

UID
3224439
帖子
285
PB币
104
贡献
0
技术
0
活跃
979
发表于 2018-11-13 13:29:38 |显示全部楼层
我这12M小水管连下载的心情都没有

Rank: 5Rank: 5Rank: 5

UID
42412
帖子
1017
PB币
2924
贡献
0
技术
2
活跃
583
发表于 2018-11-13 13:30:51 |显示全部楼层
没有这么大的分区哦,很想试试,1T的盘,放了几部大于4G的电影(无法网盘)

言论不代表官方

UID
2573430
帖子
13098
PB币
5803
贡献
0
技术
4
活跃
2089
发表于 2018-11-13 13:31:32 |显示全部楼层

远景人生,起起落落!


   我就不试了,我的显卡不行   

Rank: 2Rank: 2

UID
104311
帖子
447
PB币
534
贡献
0
技术
1
活跃
1463
发表于 2018-11-13 13:36:23 |显示全部楼层
这东西其实画质很渣,只是无意义的堆高了码率

Rank: 7Rank: 7Rank: 7

UID
2052079
帖子
2379
PB币
2241
贡献
0
技术
0
活跃
2171
发表于 2018-11-13 13:43:52 |显示全部楼层
下载试试去,哈哈!!!

Rank: 7Rank: 7Rank: 7

UID
2052079
帖子
2379
PB币
2241
贡献
0
技术
0
活跃
2171
发表于 2018-11-13 13:47:57 |显示全部楼层
发现我硬盘没有一个分区大小是300G,尴尬了!!!
回顶部
Copyright (C) 2005-2019 pcbeta.com, All rights reserved
Powered by Discuz!  苏ICP备17027154号
请勿发布违反中华人民共和国法律法规的言论,会员观点不代表远景论坛官方立场。
远景在线 | 远景论坛 | 苹果论坛 | Win10论坛 | Win8论坛 | Win7论坛 | WP论坛 | Office论坛 | 电脑硬件 | 安卓软件